Ботан и Супербаба (2022) WEBRip-AVC от Files-x скачать торрент

Reply to topic

DL-List and Torrent activity [Update пиров]
Size:  1.37 GB   |    Registered:  1 month 10 days   |    Completed:  0 times

Seeder not seen: 4 days

 
 
 
 
 
Author Message

.:Rtuty:. ®

Longevity: 1 month 10 days

Posts: 20

Location: Москва


Post 30-Jun-2022 23:47

[Quote]

Информация о фильме- Название: Ботан и Супербаба
Год выпуска: 2022
Студия: LEGIO FELIX
Жанр: Комедия, фантастика
Продолжительность: ~ 01:18:08
Субтитры: Нет-Режиссер: Дмитрий Меняйло (II)--В ролях: Софья Каштанова, Роман Попов, Андрей Астраханцев, Сергей Чудаков, Денис Васильев, Ирина Цветкова, Тамара Адамова, Юлия Костомарова, Александр Соколовский, Филипп Горенштейн, Иван Деменин-Описание: Стеснительный ботаник Иван, ученый из «Сколково», которого в школе все называли Калом (сокращенно от фамилии Калинин), для встречи выпускников крадет девушку-андроида из научного центра и приделывает к её кибертелу лицо первой красавицы школы, чтобы выдать покорного робота за свою жену. Он думает, что успех среди одноклассников теперь обеспечен, но есть одно но — андроид оказался спецразработкой для ведения боевых действий, и ей только предстоит узнать, что такое доброта и человечность. Если удастся спастись от иностранных разведок, устроивших охоту за сверхсекретной разработкой.--Информация о файле
Качество: WEBRip-AVC
Формат: MKV
Видео кодек: x264
Аудио кодек: AC3
Видео: MPEG-4 AVC, ~ 2 313 Кбит/с, 1024x432, 25 кадр/с
Аудио: AC3, 2 ch, 192 Кбит/с | |--

Медиа Инфо

General
Unique ID : 210292849679154562688837800181048860236 (0x9E34EDFC2684D72B8313B6EC722CDE4C)
Complete name : F:Ботан и Супербаба.(2022).WEBRip.(AVC).by.Серый1779.Files-x.mkv
Format : Matroska
Format version : Version 2
File size : 1.37 GiB
Duration : 1 h 18 min
Overall bit rate : 2 504 kb/s
Encoded date : UTC 2022-06-28 11:31:31
Writing application : mkvmerge v7.8.0 ('River Man') 32bit built on Apr 3 2015 12:11:22
Writing library : libebml v1.3.1 + libmatroska v1.4.2
Video
ID : 1
Format : AVC
Format/Info : Advanced Video Codec
Format profile : [email protected]
Format settings : CABAC / 9 Ref Frames
Format settings, CABAC : Yes
Format settings, RefFrames : 9 frames
Codec ID : V_MPEG4/ISO/AVC
Duration : 1 h 18 min
Bit rate : 2 313 kb/s
Width : 1 024 pixels
Height : 432 pixels
Display aspect ratio : 2.40:1
Frame rate mode : Constant
Frame rate : 25.000 FPS
Color space : YUV
Chroma subsampling : 4:2:0
Bit depth : 8 bits
Scan type : Progressive
Bits/(Pixel*Frame) : 0.209
Stream size : 1.23 GiB (90%)
Writing library : x264 core 146 r2538 121396c
Encoding settings : cabac=1 / ref=9 / deblock=1:-2:-1 / analyse=0x3:0x133 / me=umh / subme=9 / psy=1 / psy_rd=1.00:0.15 / mixed_ref=1 / me_range=32 / chroma_me=1 / trellis=2 / 8x8dct=1 / cqm=0 / deadzone=21,11 / fast_pskip=0 / chroma_qp_offset=-3 / threads=18 / lookahead_threads=3 / sliced_threads=0 / nr=0 / decimate=1 / interlaced=0 / bluray_compat=0 / constrained_intra=0 / bframes=9 / b_pyramid=2 / b_adapt=2 / b_bias=0 / direct=3 / weightb=1 / open_gop=0 / weightp=2 / keyint=250 / keyint_min=25 / scenecut=40 / intra_refresh=0 / rc=2pass / mbtree=0 / bitrate=2313 / ratetol=1.0 / qcomp=0.60 / qpmin=0 / qpmax=69 / qpstep=4 / cplxblur=20.0 / qblur=0.5 / ip_ratio=1.40 / pb_ratio=1.30 / aq=2:1.00
Default : Yes
Forced : No
Color range : Limited
Color primaries : BT.709
Transfer characteristics : BT.709
Matrix coefficients : BT.709
Audio
ID : 2
Format : AC-3
Format/Info : Audio Coding 3
Format settings, Endianness : Big
Codec ID : A_AC3
Duration : 1 h 18 min
Bit rate mode : Constant
Bit rate : 192 kb/s
Channel(s) : 2 channels
Channel positions : Front: L R
Sampling rate : 48.0 kHz
Frame rate : 31.250 FPS (1536 SPF)
Bit depth : 16 bits
Compression mode : Lossy
Stream size : 107 MiB (8%)
Service kind : Complete Main
Default : Yes
Forced : No

Скриншоты



Смотреть онлайн


[trackeroc.info].21302.torrent  Магнет ссылка
Torrent: Registered   [ 2022-06-30 23:47 ]

Скачать торрент

14 KB

Status: checked
Completed: 56 times
Size: 1.37 GB
 

trackerocc.tk (01-июл-22)

_________________
[Profile] [PM]
Display posts from previous:    
Reply to topic

The time now is: Today 21:49

All times are GMT + 4 Hours



You cannot post new topics in this forum
You cannot reply to topics in this forum
You cannot edit your posts in this forum
You cannot delete your posts in this forum
You cannot vote in polls in this forum
You cannot attach files in this forum
You can download files in this forum